22.Chaser.(2018).HDRip.AC3.XviD-EVO

Movies in one of the following formats: DVD/VHS Screener (DVDScr/VHSScr; essentially pre-released, less-mastered DVDRips/VHSRips; can be clean or have watermarks such as 'Property of' messages, and black & white scenes), Workprint (WP), R5 DVD rip (R5.DVDRip; video encoded from a Russian retail DVD, while Russian audio usually replaced with cinema quality English audio), PDVD rip (PDVDRip; normally well-mastered TCs), VHS rip (VHSRip), and television source encodes (HDTV, DCCap, SatRip, DSR, TVRip).
Post Reply
bjorn j
Donator
Donator
Posts: 2770
Joined: Wed Jan 07, 2009 1:49 pm
Has thanked: 42 times
Been thanked: 6422 times

22.Chaser.(2018).HDRip.AC3.XviD-EVO

Post by bjorn j » Wed Oct 10, 2018 5:11 pm

Image

http://www.IMDb.com/title/tt5130442/
Genres: Crime , Drama

One of the city's last decent tow truck drivers risks everything on a desperate quest to become king of the road and provide for his struggling family.

Code: Select all

Format                                   : AVI
File size                                : 1.29 GiB
Duration                                 : 1 h 26 min
Overall bit rate                         : 2 119 kb/s

Video
ID                                       : 0
Format                                   : MPEG-4 Visual
Format profile                           : Advanced [email protected]
Format settings                          : BVOP2
Format settings, BVOP                    : 2
Format settings, QPel                    : No
Format settings, GMC                     : No warppoints
Format settings, Matrix                  : Default (H.263)
Muxing mode                              : Packed bitstream
Codec ID                                 : XviD
Codec ID/Hint                            : XviD
Duration                                 : 1 h 26 min
Bit rate                                 : 1 725 kb/s
Width                                    : 720 pixels
Height                                   : 400 pixels
Display aspect ratio                     : 16:9
Frame rate                               : 23.976 (24000/1001) FPS
Color space                              : YUV
Chroma subsampling                       : 4:2:0
Bit depth                                : 8 bits
Scan type                                : Progressive
Compression mode                         : Lossy
Bits/(Pixel*Frame)                       : 0.250
Stream size                              : 1.05 GiB (81%)
Writing library                          : XviD 66

Audio
ID                                       : 1
Format                                   : AC-3
Format/Info                              : Audio Coding 3
Commercial name                          : Dolby Digital
Codec ID                                 : 2000
Duration                                 : 1 h 26 min
Bit rate mode                            : Constant
Bit rate                                 : 384 kb/s
Channel(s)                               : 6 channels
Channel layout                           : L R C LFE Ls Rs
Sampling rate                            : 48.0 kHz
Frame rate                               : 31.250 FPS (1536 SPF)
Bit depth                                : 16 bits
Compression mode                         : Lossy
Stream size                              : 239 MiB (18%)
Alignment                                : Aligned on interleaves
Interleave, duration                     : 42  ms (1.00 video frame)
Interleave, preload duration             : 512  ms
Service kind                             : Complete Main
Image
Image
Image

22.Chaser.2018.HDRip.XviD.AC3-EVO.avi  [1.29 Gb]

Post Reply

Return to “Non-Retail (DVDScr, WP, R5, PDVD, VHS, LD, HDTV, TV)”