Sangue.del.mio.Sangue.(2015).BDRip.720p.DTS.x264-HORiZON-ArtSubs [IT]

Encodes in the resolutions a720p, 720p, 810p and 1080i, and in irregular HD resolutions, retail (BluRay, HDDVD) or non-retail (WEB, HDTV) sources, with one or more foreign language audio tracks (can additionally include one or more English tracks). This section does not include animated or TV/documentary films, it does however include black & white movies.
Post Reply
eleternauta2
Registered user
Registered user
Posts: 97
Joined: Sun Jul 19, 2009 10:08 pm
Been thanked: 3 times

Sangue.del.mio.Sangue.(2015).BDRip.720p.DTS.x264-HORiZON-ArtSubs [IT]

Post by eleternauta2 » Sun Sep 11, 2016 8:47 pm

Image

IMDb

Sangue.del.mio.Sangue.2015.BluRay.720p.x264.HORiZON-ArtSubs.mkv  [4.85 Gb]

Code: Select all

General
Unique ID : 233689149664132009937819895598235787782 (0xAFCEE4A24F5CE0A488AB3B8A62642206)
Complete name : Sangue.del.mio.Sangue.2015.BluRay.720p.x264.HORiZON-ArtSubs.mkv
Format : Matroska
Format version : Version 4 / Version 2
File size : 4.85 GiB
Duration : 1h 48mn
Overall bit rate : 6 401 Kbps
Encoded date : UTC 2016-01-27 10:19:02
Writing application : mkvmerge v8.3.0 ('Over the Horizon') 64bit
Writing library : libebml v1.3.1 + libmatroska v1.4.2

Video
ID : 1
Format : AVC
Format/Info : Advanced Video Codec
Format profile : [email protected]
Format settings, CABAC : Yes
Format settings, ReFrames : 5 frames
Codec ID : V_MPEG4/ISO/AVC
Duration : 1h 48mn
Bit rate : 4 253 Kbps
Width : 1 280 pixels
Height : 690 pixels
Display aspect ratio : 1.85:1
Frame rate mode : Constant
Frame rate : 23.976 (24000/1001) fps
Color space : YUV
Chroma subsampling : 4:2:0
Bit depth : 8 bits
Scan type : Progressive
Bits/(Pixel*Frame) : 0.201
Stream size : 3.22 GiB (66%)
Title : Sangue del mio sangue (2015) HD 720p DTS AC3 iTA SUBS - DDN
Writing library : x264 core 148 r2638 7599210
Encoding settings : cabac=1 / ref=5 / deblock=1:3:3 / analyse=0x3:0x133 / me=umh / subme=9 / psy=1 / psy_rd=1.05:0.00 / mixed_ref=1 / me_range=32 / chroma_me=1 / trellis=2 / 8x8dct=1 / cqm=0 / deadzone=21,11 / fast_pskip=0 / chroma_qp_offset=-2 / threads=12 / lookahead_threads=1 / sliced_threads=0 / nr=0 / decimate=0 / interlaced=0 / bluray_compat=0 / constrained_intra=0 / bframes=3 / b_pyramid=2 / b_adapt=2 / b_bias=0 / direct=3 / weightb=1 / open_gop=0 / weightp=2 / keyint=240 / keyint_min=23 / scenecut=40 / intra_refresh=0 / rc_lookahead=40 / rc=2pass / mbtree=0 / bitrate=4253 / ratetol=1.0 / qcomp=0.65 / qpmin=0 / qpmax=69 / qpstep=4 / cplxblur=20.0 / qblur=0.5 / vbv_maxrate=50000 / vbv_bufsize=50000 / nal_hrd=none / filler=0 / ip_ratio=1.40 / pb_ratio=1.30 / aq=3:0.80
Language : English
Default : Yes
Forced : No

Audio #1
ID : 2
Format : DTS
Format/Info : Digital Theater Systems
Mode : 16
Format settings, Endianness : Big
Codec ID : A_DTS
Duration : 1h 48mn
Bit rate mode : Constant
Bit rate : 1 509 Kbps
Channel(s) : 6 channels
Channel positions : Front: L C R, Side: L R, LFE
Sampling rate : 48.0 KHz
Frame rate : 93.750 fps (512 spf)
Bit depth : 24 bits
Compression mode : Lossy
Stream size : 1.14 GiB (24%)
Title : DTS iTA
Language : Italian
Default : Yes
Forced : No

Text #1
ID : 4
Format : UTF-8
Codec ID : S_TEXT/UTF8
Codec ID/Info : UTF-8 Plain Text
Duration : 1h 37mn
Bit rate : 37 bps
Count of elements : 808
Stream size : 26.7 KiB (0%)
Title : NON UDENTI iTA
Language : Italian
Default : Yes
Forced : No

Text #2
ID : 5
Format : UTF-8
Codec ID : S_TEXT/UTF8
Codec ID/Info : UTF-8 Plain Text
Duration : 1h 39mn
Bit rate : 34 bps
Count of elements : 750
Stream size : 25.1 KiB (0%)
Title : REGULAR ENG
Language : English
Default : No
Forced : No

Menu
00:00:00.000 : en:00:00:00.000
00:07:03.381 : en:00:07:03.381
00:16:15.183 : en:00:16:15.183
00:19:10.691 : en:00:19:10.691
00:25:22.187 : en:00:25:22.187
00:31:48.615 : en:00:31:48.615
00:35:42.349 : en:00:35:42.349
00:42:31.132 : en:00:42:31.132
00:48:44.630 : en:00:48:44.630
00:52:14.757 : en:00:52:14.757
00:57:48.965 : en:00:57:48.965
01:08:47.248 : en:01:08:47.248
01:19:35.646 : en:01:19:35.646
01:26:00.030 : en:01:26:00.030
01:31:50.171 : en:01:31:50.171
01:36:57.228 : en:01:36:57.228
Image Image Image Image

Post Reply

Return to “Other HD (a720p, 720p, 810p, 1080i)”