Den.skaldede.frisør.(aka.Love.Is.All.You.Need).(2012).BDRip.720p.AAC.X264-PRiSTiNE [DK]

Encodes in the resolutions a720p, 720p, 810p and 1080i, and in irregular HD resolutions, retail (BluRay, HDDVD) or non-retail (WEB, HDTV) sources, with one or more foreign language audio tracks (can additionally include one or more English tracks). This section does not include animated or TV/documentary films, it does however include black & white movies.
Post Reply
IoNeL
Banned
Posts: 958
Joined: Tue Mar 17, 2009 11:53 pm

Den.skaldede.frisør.(aka.Love.Is.All.You.Need).(2012).BDRip.720p.AAC.X264-PRiSTiNE [DK]

Post by IoNeL » Fri Jul 12, 2013 12:05 am

Den skaldede frisør (2012)
(a.k.a. Love Is All You Need)
Image
IMDb nfo: http://www.IMDb.com/title/tt1854236/
Storyline
A Danish woman, Ida (Trine Dyrholm), who has just finished her cancer treatments, walks in on her suffering husband in bed with his young co-worker. She travels alone to their daughter's wedding, which is to take place in Italy, but meets the father of the groom, Philip (Pierce Brosnan), and immediately makes a bad first impression. At the seaside villa where Philip once lived with his wife, conflicts arise not least between the soon-to-be newlyweds. But first impressions fade, and Ida may find her chance for another life. Written by Peter Brandt Nielsen
PPPPPPPPPPPPPPPPP   222222222222222   PPPPPPPPPPPPPPPPP  DDDDDDDDDDDDD     LLLLLLLLLLL             
P::::::::::::::::P 2::::::MAKE!::::22 P:::::::SAVE!::::P D::::SHARE!::DDD  L:::::::::L             
P::::::PPPPPP:::::P2::::::222222:::::2P::::::PPPPPP:::::PD:::::::::::::::DDL:::::::::L             
PP:::::P     P:::::2222222     2:::::2PP:::::P     P:::::DDD:::::DDDDD:::::LL:::::::LL             
  P::::P     P:::::P           2:::::2  P::::P     P:::::P D:::::D    D:::::DL:::::L               
  P::::P     P:::::P           2:::::2  P::::P     P:::::P D:::::D     D:::::L:::::L               
  P::::PPPPPP:::::P         2222::::2   P::::PPPPPP:::::P  D:::::D     D:::::L:::::L               
  P:::::::::::::PP     22222::::::22    P:::::::::::::PP   D:::::D     D:::::L:::::L               
  P::::PPPPPPPPP     22::::::::222      P::::PPPPPPPPP     D:::::D     D:::::L:::::L               
  P::::P            2:::::22222         P::::P             D:::::D     D:::::L:::::L               
  P::::P           2:::::2              P::::P             D:::::D     D:::::L:::::L               
  P::::P           2:::::2              P::::P             D:::::D    D:::::DL:::::L         LLLLLL
PP::::::PP         2:::::2       22222PP::::::PP         DDD:::::DDDDD:::::LL:::::::LLLLLLLLL:::::L
P::::::::P         2::::::2222222:::::P::::::::P         D:::::::::::::::DDL::::::::::::::::::::::L
P::::::::P         2:::::Vitamin_X::::P::VYTO::P         D::::ViZNU:::DDD  L::::::::::::::::::::::L
PPPPPPPPP PRiSTiNE 2222222222222222222PPPPPPPPP PRiSTiNE DDDDDDDDDDDDD     LLLLLLLLLLLLLLLLLLLLLLLL
                                                                                                   
                                                                                                   
                                                                                                   
_________________________  Visit us at _________________________
 
http://p2pdl.com  ____________________________  http://p2pdl.com


http://www.ultraimg.com/images/zibmn.jpg

Love Is All You Need 2012 BRRip 720p x264 AAC - PRiSTiNE

Genre: Comedy | Romance
Plot: A hairdresser who has lost her hair to cancer finds out her 
husband is having an affair, travels to Italy for her daughter's 
wedding and meets a widower who still blames the world for the loss 
of his wife.
Director: Susanne Bier
Stars: Pierce Brosnan, Trine Dyrholm, Kim Bodnia 
Rated: Rated R for brief sexuality, nudity and some language.

Info:
http://www.IMDb.com/title/tt1854236/

Trailer:
http://www.youtube.com/watch?v=YsKHRubXPt8

General
Complete name                  : Love Is All You Need 2012 BRRip 720p x264 AAC - PRiSTiNE.mp4
Format                         : MPEG-4
Format profile                 : Base Media
Codec ID                       : isom
File size                      : 625 MiB
Duration                       : 1h 51mn
Overall bit rate mode          : Variable
Overall bit rate               : 786 Kbps

Video
ID                             : 1
Format                         : AVC
Format/Info                    : Advanced Video Codec
Format profile                 : High [email protected]
Duration                       : 1h 51mn
Bit rate                       : 699 Kbps
Maximum bit rate               : 7 345 Kbps
Width                          : 1 280 pixels
Height                         : 544 pixels
Display aspect ratio           : 2.35:1
Frame rate mode                : Constant
Frame rate                     : 25.000 fps
Bit depth                      : 10 bits
Stream size                    : 556 MiB (89%)
Writing library                : x264 core 129 r2245 bc13772

Audio
Format                         : AAC
Duration                       : 1h 51mn
Bit rate mode                  : Variable
Bit rate                       : 84.0 Kbps
Channel(s)                     : 2 channels
Channel positions              : Front: L R
Sampling rate                  : 48.0 KHz / 24.0 KHz
Stream size                    : 66.8 MiB (11%)
Language                       : Danish


Subtitle                       : Yes ( English)


Screens:
http://ultraimg.com/images/D8MkW.jpg
http://ultraimg.com/images/ZGnR8.jpg
http://ultraimg.com/images/ytCw8.jpg
http://ultraimg.com/images/kZCo2.jpg

Thumbs:
http://ultraimg.com/images/FIfy.jpg

----------------------------------------------------------------------------------------------------
Encoded using revolutionary 10bit encoding, which enables us to provide you more crispier 
and sharper images at small sizes, just make sure you follow our instructions without a fault.
Recommend to you to use latest version of VLC player. Install K-Lite Codec Pack or shark007 codecs
in case of any kind of problem in playback (For non-VLC Media Player users). Alternatively, install
Core AVC codecs, the fastest decoder that there is coupled with Community Center Codec Pack and play
on Windows Media Player Classic. Check sample to be sure.
Enjoy!

Greets to: VYTO, a2zRG, MusiK_KinG, Kuroyukihime, TorDigger, Ash968, StyLishSaLH, Masta and staff members at
ExtraTorrent, TPB, H33T, KAT, 1337x, PublicHD, Ahashare, BTScene, SilverTorrent, LimeTorrents, TorrentMafia,
P2PDL, and all others.

Encoder Notes: Looking For Early Access To Anything You Can Provide DVDScr, R5, DVDR, BluRay, Direct
Audio, Early Music Releases, Seedboxes, Dedicated Servers anything u can provide, Advance / Promo CDs/
DVDs. If You Got anything to offer contact me at "[email protected]".

Facebook Fan Page: http://www.facebook.com/p2pdl
General
Complete name                            : Love Is All You Need 2012 BRRip 720p x264 AAC - PRiSTiNE.mp4
Format                                   : MPEG-4
Format profile                           : Base Media
Codec ID                                 : isom
File size                                : 625 MiB
Duration                                 : 1h 51mn
Overall bit rate mode                    : Variable
Overall bit rate                         : 786 Kbps
Encoded date                             : UTC 2013-03-03 20:12:13
Tagged date                              : UTC 2013-03-03 20:12:13

Video
ID                                       : 1
Format                                   : AVC
Format/Info                              : Advanced Video Codec
Format profile                           : High [email protected]
Format settings, CABAC                   : Yes
Format settings, ReFrames                : 4 frames
Codec ID                                 : avc1
Codec ID/Info                            : Advanced Video Coding
Duration                                 : 1h 51mn
Bit rate                                 : 699 Kbps
Maximum bit rate                         : 7 345 Kbps
Width                                    : 1 280 pixels
Height                                   : 544 pixels
Display aspect ratio                     : 2.35:1
Frame rate mode                          : Constant
Frame rate                               : 25.000 fps
Color space                              : YUV
Chroma subsampling                       : 4:2:0
Bit depth                                : 10 bits
Scan type                                : Progressive
Bits/(Pixel*Frame)                       : 0.040
Stream size                              : 556 MiB (89%)
Title                                    : Love.is.all.you.need.2012.720p.bluray.dts.x264-publichd.mkv.264#trackID=1:[email protected]
Writing library                          : x264 core 129 r2245 bc13772
Encoding settings                        : cabac=1 / ref=5 / deblock=1:-3:-1 / analyse=0x3:0x113 / me=umh /
                                           subme=9 / psy=1 / psy_rd=1.00:0.15 / mixed_ref=1 / me_range=16 /
                                           chroma_me=1 / trellis=1 / 8x8dct=1 / cqm=0 / deadzone=21,11 /
                                           fast_pskip=1 / chroma_qp_offset=-5 / threads=6 / lookahead_threads=1 /
                                           sliced_threads=0 / nr=0 / decimate=1 / interlaced=0 / bluray_compat=0 /
                                           constrained_intra=0 / bframes=3 / b_pyramid=1 / b_adapt=2 / b_bias=0 /
                                           direct=3 / weightb=1 / open_gop=0 / weightp=2 / keyint=250 /
                                           keyint_min=25 / scenecut=40 / intra_refresh=0 / rc_lookahead=50 /
                                           rc=2pass / mbtree=1 / bitrate=699 / ratetol=1.0 / qcomp=0.60 / qpmin=0 /
                                           qpmax=81 / qpstep=4 / cplxblur=20.0 / qblur=0.5 / vbv_maxrate=50000 /
                                           vbv_bufsize=50000 / nal_hrd=none / ip_ratio=1.40 / aq=1:1.00

Encoded date                             : UTC 2013-03-03 20:12:13
Tagged date                              : UTC 2013-03-03 20:12:22

Audio
ID                                       : 2
Format                                   : AAC
Format/Info                              : Advanced Audio Codec
Format profile                           : HE-AAC / LC
Codec ID                                 : 40
Duration                                 : 1h 51mn
Bit rate mode                            : Variable
Bit rate                                 : 84.0 Kbps
Maximum bit rate                         : 110 Kbps
Channel(s)                               : 2 channels
Channel positions                        : Front: L R
Sampling rate                            : 48.0 KHz / 24.0 KHz
Compression mode                         : Lossy
Stream size                              : 66.8 MiB (11%)
Language                                 : Danish
Encoded date                             : UTC 2013-03-03 15:44:26
Tagged date                              : UTC 2013-03-03 20:12:22

giraldino
Registered user
Registered user
Posts: 108
Joined: Tue May 23, 2006 10:17 pm
Has thanked: 58 times

Re: Den.skaldede.frisør.(aka.Love.Is.All.You.Need).(2012).BDRip.720p.AAC.X264-PRiSTiNE [DK]

Post by giraldino » Sun Oct 12, 2014 3:03 am

Thanks.

Post Reply

Return to “Other HD (a720p, 720p, 810p, 1080i)”